互賠MV

卦指双燕
臥心: 17148|指鹸: 243

[1080P] 件史勧謎 塞盟埖弼[1080i][425M][ts]

  [鹸崙全俊]
窟燕噐 2011-5-19 23:20:56 | 塋照何促蚊 |堋響庁塀
MV
彿坿鯉塀: ts
彿坿利徒: 為業
猟周寄弌: 425M
1080i HDTV MPEG2-CHDTV.ts
   General
      Complete name : C:\Documents and Settings\Administrator\彑中\[hdape.com].1080i HDTV MPEG2-CHDTV.ts
      Format : MPEG-PS
      File size : 425 MiB
      Duration : 3mn 26s
      Overall bit rate : 17.3 Mbps
      Writing library : (c) 1998-2010 Womble Multimedia, Inc. / MPEG Video Wizard DVD 5.0.0.114 (01/2010) / Dec 10 2010
   Video #224
      ID : 224 (0xE0)
      Format : MPEG Video
      Format version : Version 2
      Format profile : Main@High
      Format settings, Matrix : Default
      Duration : 3mn 26s
      Bit rate mode : Variable
      Bit rate : 16.2 Mbps
      Nominal bit rate : 16.6 Mbps
      Width : 1 920 pixels
      Height : 1 080 pixels
      Display aspect ratio : 16:9
      Frame rate : 25.000 fps
      Colorimetry : 4:2:0
      Scan type : Interlaced
      Scan order : Top Field First
      Bits/(Pixel*Frame) : 0.312
      Stream size : 397 MiB (93%)
      Writing library : (c) 1998-2010 Womble Multimedia, Inc. / MPEG Video Wizard DVD 5.0.0.114 (01/2010) / Dec 10 2010
   Audio #128
      ID : 128 (0x80)
      Format : AC-3
      Format/Info : Audio Coding 3
      Duration : 3mn 26s
      Bit rate mode : Constant
      Bit rate : 448 Kbps
      Channel(s) : 2 channels
      Channel positions : L R
      Sampling rate : 48.0 KHz
      Video delay : -40ms
      Stream size : 11.0 MiB (3%)
1080i HDTV MPEG2-CHDTV.ts
   General
      Complete name : C:\Documents and Settings\Administrator\彑中\[hdape.com].1080i HDTV MPEG2-CHDTV.ts
      Format : MPEG-PS
      File size : 425 MiB
      Duration : 3mn 26s
      Overall bit rate : 17.3 Mbps
      Writing library : (c) 1998-2010 Womble Multimedia, Inc. / MPEG Video Wizard DVD 5.0.0.114 (01/2010) / Dec 10 2010
   Video #224
      ID : 224 (0xE0)
      Format : MPEG Video
      Format version : Version 2
      Format profile : Main@High
      Format settings, Matrix : Default
      Duration : 3mn 26s
      Bit rate mode : Variable
      Bit rate : 16.2 Mbps
      Nominal bit rate : 16.6 Mbps
      Width : 1 920 pixels
      Height : 1 080 pixels
      Display aspect ratio : 16:9
      Frame rate : 25.000 fps
      Colorimetry : 4:2:0
      Scan type : Interlaced
      Scan order : Top Field First
      Bits/(Pixel*Frame) : 0.312
      Stream size : 397 MiB (93%)
      Writing library : (c) 1998-2010 Womble Multimedia, Inc. / MPEG Video Wizard DVD 5.0.0.114 (01/2010) / Dec 10 2010
   Audio #128
      ID : 128 (0x80)
      Format : AC-3
      Format/Info : Audio Coding 3
      Duration : 3mn 26s
      Bit rate mode : Constant
      Bit rate : 448 Kbps
      Channel(s) : 2 channels
      Channel positions : L R
      Sampling rate : 48.0 KHz
      Video delay : -40ms
      Stream size : 11.0 MiB (3%)
115和墮 snapshot20110518111549.jpg

https://pan.baidu.com/share/link?shareid=1245349150&uk=1245813206&fid=823483409293992
窟燕噐 2011-5-22 17:15:34 | 塋照何促蚊
宸倖梧音危議,,,
窟燕噐 2011-5-19 23:53:03 | 塋照何促蚊
厘載浪散仍仍蛍
窟燕噐 2011-5-20 01:10:20 | 塋照何促蚊
鮫中載賠漣亜仍仍蛍
窟燕噐 2011-5-20 12:58:43 | 塋照何促蚊
鮫中載賠漣亜仍仍蛍
窟燕噐 2011-5-20 14:13:33 | 塋照何促蚊
心匯心亜心匯心
窟燕噐 2011-5-21 11:18:46 | 塋照何促蚊
指鹸 **** 狼由咨茄全俊,480P氏埀參貧辛需 **** hdorg


    12312345654
窟燕噐 2011-5-21 14:08:04 | 塋照何促蚊
湖仍蛍~~~~~
窟燕噐 2011-5-21 15:39:42 | 塋照何促蚊
宸倖挫  岷俊祥辛參窟愉指鹸
窟燕噐 2011-5-22 12:48:11 | 塋照何促蚊
鮫中載賠漣亜仍仍蛍
艇俶勣鞠村朔嘉辛參指愉 鞠村 | 廣過

云井持蛍号夸

酔堀指鹸 卦指競何 卦指双燕