高清MV

返回列表
查看: 5387|回复: 82

[1080P] 孙燕姿 - 快疯了.1080p.mp4

  [复制链接]
发表于 2011-5-7 09:53:57 | 显示全部楼层 |阅读模式
孙燕姿 - 快疯了.1080p.mp4
Format                           : MPEG-4
Format profile                   : Base Media / Version 2
Codec ID                         : mp42
File size                        : 129 MiB
Duration                         : 3mn 38s
Overall bit rate                 : 4 946 Kbps
Encoded date                     : UTC 2011-04-30 13:10:35
Tagged date                      : UTC 2011-04-30 13:10:35
gsst                             : 0
gstd                             : 218146
gssd                             : B4A7D0F41MH1304266029525414
gshh                             : v11.lscache6.c.youtube.com

Video
ID                               : 1
Format                           : AVC
Format/Info                      : Advanced Video Codec
Format profile                   : High@L4.0
Format settings, CABAC           : Yes
Format settings, ReFrames        : 1 frame
Codec ID                         : avc1
Codec ID/Info                    : Advanced Video Coding
Duration                         : 3mn 38s
Bit rate mode                    : Variable
Bit rate                         : 4 788 Kbps
Maximum bit rate                 : 13.9 Mbps
Width                            : 1 920 pixels
Height                           : 1 080 pixels
Display aspect ratio             : 16/9
Frame rate mode                  : Variable
Frame rate                       : 29.966 fps
Minimum frame rate               : 29.412 fps
Maximum frame rate               : 200.000 fps
Resolution                       : 24 bits
Colorimetry                      : 4:2:0
Scan type                        : Progressive
Bits/(Pixel*Frame)               : 0.077
Stream size                      : 125 MiB (97%)
Encoded date                     : UTC 1970-01-01 00:00:00
Tagged date                      : UTC 2011-04-30 13:10:36

Audio
ID                               : 2
Format                           : AAC
Format/Info                      : Advanced Audio Codec
Format version                   : Version 4
Format profile                   : LC
Format settings, SBR             : No
Codec ID                         : 40
Duration                         : 3mn 38s
Bit rate mode                    : Variable
Bit rate                         : 152 Kbps
Maximum bit rate                 : 190 Kbps
Channel(s)                       : 2 channels
Channel positions                : L R
Sampling rate                    : 44.1 KHz
Resolution                       : 16 bits
Stream size                      : 3.94 MiB (3%)
Title                            : (C) 2007 Google Inc. v08.13.2007.
Encoded date                     : UTC 2011-04-30 13:10:36
Tagged date                      : UTC 2011-04-30 13:10:36

admovie.jpg

**** 系统隐藏链接,480i会员以上可见 ****
发表于 2011-5-7 12:43:20 | 显示全部楼层
顶顶顶顶顶顶
发表于 2011-5-7 19:10:02 | 显示全部楼层
顶顶顶顶顶顶
发表于 2011-5-7 19:38:00 | 显示全部楼层
最爱燕姿!!!
发表于 2011-5-7 22:49:59 | 显示全部楼层
好东东。。。。。。。。
发表于 2011-5-8 10:44:31 | 显示全部楼层
快疯了,好听哦
发表于 2011-5-8 17:08:07 | 显示全部楼层
顶顶顶顶顶顶顶顶顶顶顶顶顶顶
发表于 2011-5-8 23:01:40 | 显示全部楼层
回复再说.顶顶顶顶顶....
发表于 2011-5-11 23:22:54 | 显示全部楼层
喜欢孙燕姿的声音,谢谢楼主分享~~!
发表于 2011-5-11 23:23:38 | 显示全部楼层
喜欢孙燕姿的声音,谢谢楼主分享~~!
您需要登录后才可以回帖 登录 | 注册

本版积分规则

快速回复 返回顶部 返回列表