查看: 13509|回复: 141

[melon] 韩国第一颜团 HELLOVENUS - 我是艺术 (melon 1080P) (推荐收藏)

发表于 2015-8-13 23:36:59 | 显示全部楼层

252 MB (264,457,455 字节)
防和谐 自行更改后缀名
General
Complete name                  : N:\melon收藏\50138222 KRMTV.COM .HELLOVENUS - 我是艺术.mp4
Format                         : MPEG-4
Format profile                 : Base Media / Version 2
Codec ID                       : mp42
File size                      : 252 MiB
Duration                       : 3mn 28s
Overall bit rate mode          : Variable
Overall bit rate               : 10.1 Mbps
Writing application            : TMPGEnc Video Mastering Works 5 Version. 5.4.0.100

Video
ID                             : 2
Format                         : AVC
Format/Info                    : Advanced Video Codec
Format profile                 : Baseline@L4.1
Format settings, CABAC         : No
Format settings, ReFrames      : 4 frames
Codec ID                       : avc1
Codec ID/Info                  : Advanced Video Coding
Duration                       : 3mn 28s
Bit rate mode                  : Constant
Bit rate                       : 10 000 Kbps / 10 000 Kbps
Width                          : 1 920 pixels
Height                         : 1 080 pixels
Display aspect ratio           : 16:9
Frame rate mode                : Constant
Frame rate                     : 23.976 fps
Standard                       : Component
Color space                    : YUV
Chroma subsampling             : 4:2:0
Bit depth                      : 8 bits
Scan type                      : Progressive
Bits/(Pixel*Frame)             : 0.201
Stream size                    : 244 MiB (97%)
Writing library                : x264 core 125
Encoding settings              : cabac=0 / ref=4 / deblock=1:0:0 / analyse=0x1:0x111 / me=dia / subme=2 / psy=1 / psy_rd=1.00:0.00 / mixed_ref=0 / me_range=16 / chroma_me=1 / trellis=0 / 8x8dct=0 / cqm=0 / deadzone=21,11 / fast_pskip=1 / chroma_qp_offset=0 / threads=6 / lookahead_threads=1 / sliced_threads=0 / slices=1 / nr=0 / decimate=1 / interlaced=0 / bluray_compat=0 / constrained_intra=0 / bframes=0 / weightp=0 / keyint=300 / keyint_min=23 / scenecut=40 / intra_refresh=0 / rc_lookahead=10 / rc=cbr / mbtree=1 / bitrate=10000 / ratetol=1.0 / qcomp=0.60 / qpmin=0 / qpmax=69 / qpstep=4 / vbv_maxrate=10000 / vbv_bufsize=10000 / nal_hrd=cbr / ip_ratio=1.40 / aq=1:1.00
Color range                    : Limited
Color primaries                : BT.709
Transfer characteristics       : BT.709
Matrix coefficients            : BT.709

Audio
ID                             : 1
Format                         : AAC
Format/Info                    : Advanced Audio Codec
Format profile                 : LC
Codec ID                       : 40
Duration                       : 3mn 28s
Bit rate mode                  : Variable
Bit rate                       : 317 Kbps
Maximum bit rate               : 576 Kbps
Channel(s)                     : 2 channels
Channel positions              : Front: L R
Sampling rate                  : 48.0 KHz
Compression mode               : Lossy
Stream size                    : 7.89 MiB (3%)

下载地址:
**** 系统隐藏链接,您当前级别不可见 ****

提取码:
4lx1
发表于 2015-8-14 08:15:59 | 显示全部楼层

如果您要查看本帖隐藏内容请回复

发表于 2015-8-14 08:43:02 | 显示全部楼层

好东西,谢谢分享!      

发表于 2015-8-14 09:07:47 | 显示全部楼层

谢谢分享   好资源   好楼主

发表于 2015-8-14 10:10:26 | 显示全部楼层

很想看看新团怎么样,很久没有看了,嘻嘻!

发表于 2015-8-14 10:54:34 | 显示全部楼层


好东西,谢谢分享!   

发表于 2015-8-14 12:31:10 | 显示全部楼层

就是第一的美颜

发表于 2015-8-14 13:13:35 | 显示全部楼层

谢谢楼主分享哦

发表于 2015-8-14 13:35:56 | 显示全部楼层

韩国第一颜团 HELLOVENUS - 我是艺术 (melon 1080P) (推荐收藏) [修改]
高级模式

发表于 2015-8-14 14:20:56 | 显示全部楼层

很想看看新团怎么样,很久没有看了

下一页 »
您需要登录后才可以回帖 登录 | 注册

本版积分规则

声明:本站所有资源信息均来自互联网,本站不提供下载.

如您认为本站页面信息侵犯了您的权益,请邮件告知,我们将在收到邮件24小时内删除

© 2016 高清MV邮箱 : hdmv@qq.com

粤ICP备16086926-1号

快速回复 返回顶部 返回列表