高清MV

1234下一页
返回列表
查看: 2846|回复: 36

[1080P] 孙燕姿 世说心语[.mp4.1080P.73M]

[复制链接]
发表于 2011-4-11 20:07:42 | 显示全部楼层 |阅读模式
thumbs20110411200452.jpg


孙燕姿  世说心语.mp4
Format                           : MPEG-4
Format profile                   : Base Media / Version 2
Codec ID                         : mp42
File size                        : 73.7 MiB
Duration                         : 3mn 47s
Overall bit rate                 : 2 718 Kbps
Encoded date                     : UTC 2011-03-14 16:05:51
Tagged date                      : UTC 2011-03-14 16:05:51
gsst                             : 0
gstd                             : 227385
gssd                             : BADC21902HH1300214332526267
gshh                             : v12.lscache2.c.youtube.com

Video
ID                               : 1
Format                           : AVC
Format/Info                      : Advanced Video Codec
Format profile                   : High@L4.0
Format settings, CABAC           : Yes
Format settings, ReFrames        : 1 frame
Codec ID                         : avc1
Codec ID/Info                    : Advanced Video Coding
Duration                         : 3mn 47s
Bit rate mode                    : Variable
Bit rate                         : 2 584 Kbps
Maximum bit rate                 : 13.3 Mbps
Width                            : 1 920 pixels
Height                           : 1 080 pixels
Display aspect ratio             : 16/9
Frame rate mode                  : Variable
Frame rate                       : 23.977 fps
Minimum frame rate               : 17.241 fps
Maximum frame rate               : 24.390 fps
Resolution                       : 24 bits
Colorimetry                      : 4:2:0
Scan type                        : Progressive
Bits/(Pixel*Frame)               : 0.052
Stream size                      : 70.0 MiB (95%)
Encoded date                     : UTC 1970-01-01 00:00:00
Tagged date                      : UTC 2011-03-14 16:05:57

Audio
ID                               : 2
Format                           : AAC
Format/Info                      : Advanced Audio Codec
Format version                   : Version 4
Format profile                   : LC
Format settings, SBR             : No
Codec ID                         : 40
Duration                         : 3mn 47s
Bit rate mode                    : Variable
Bit rate                         : 128 Kbps
Maximum bit rate                 : 203 Kbps
Channel(s)                       : 2 channels
Channel positions                : L R
Sampling rate                    : 44.1 KHz
Resolution                       : 16 bits
Stream size                      : 3.47 MiB (5%)
Title                            : (C) 2007 Google Inc. v08.13.2007.
Encoded date                     : UTC 2011-03-14 16:05:54
Tagged date                      : UTC 2011-03-14 16:05:57

**** 系统隐藏链接,480P会员以上可见 ****
发表于 2011-4-12 20:33:19 | 显示全部楼层
不错哟,收下了
发表于 2011-4-13 11:22:05 | 显示全部楼层
感谢~收下啦~我超爱燕姿的
发表于 2011-4-13 11:23:45 | 显示全部楼层
悲剧,115现在不能用了,不能下载不是自己上传的视频……
发表于 2011-4-17 23:25:03 | 显示全部楼层
喜欢的歌曲 我喜欢
发表于 2011-4-29 17:38:16 | 显示全部楼层
谢谢咯 收下收下
发表于 2011-5-2 10:23:05 | 显示全部楼层
喜欢的歌曲 我喜欢
发表于 2011-5-9 11:33:53 | 显示全部楼层
女神般的存在。漂亮的燕姿。
发表于 2011-5-9 23:23:37 | 显示全部楼层
燕姿燕姿,我的女神
发表于 2011-5-13 04:41:12 | 显示全部楼层
女神般的存在。漂亮的燕
您需要登录后才可以回帖 登录 | 注册

本版积分规则

快速回复 返回顶部 返回列表